Welcome to XDA

Search to go directly to your device's forum

Register an account

Unlock full posting privileges

Ask a question

No registration required
Post Reply

[Q] Problem with Galaxy S4 MP4 playback on other devices

OP Nate2

2nd February 2014, 06:41 AM   |  #1  
Nate2's Avatar
OP Senior Member
Thanks Meter: 52
 
485 posts
Join Date:Joined: Dec 2010
I recorded a video using my Samsung Galaxy S4.
The .mp4 plays back fine on the S4, but stutters on just about every device I try to play it back on.
Audio seems fine, but video freezes periodically on playback on those devices.
Is there something about the S4's .mp4 recording format that I need to change?

General
Complete name : C:\Galaxy_S4_Videos\20140129_131624.mp4
Format : MPEG-4
Format profile : Base Media
Codec ID : isom
File size : 264 MiB
Duration : 2mn 9s
Overall bit rate : 17.0 Mbps
Encoded date : UTC 2014-01-29 21:18:36
Tagged date : UTC 2014-01-29 21:18:36

Video
ID : 1
Format : AVC
Format/Info : Advanced Video Codec
Format profile : High@L4.0
Format settings, CABAC : Yes
Format settings, ReFrames : 1 frame
Format settings, GOP : M=1, N=30
Codec ID : avc1
Codec ID/Info : Advanced Video Coding
Duration : 2mn 9s
Bit rate : 16.9 Mbps
Width : 1 920 pixels
Height : 1 080 pixels
Display aspect ratio : 16:9
Frame rate mode : Variable
Frame rate : 29.888 fps
Minimum frame rate : 14.978 fps
Maximum frame rate : 31.724 fps
Color space : YUV
Chroma subsampling : 4:2:0
Bit depth : 8 bits
Scan type : Progressive
Bits/(Pixel*Frame) : 0.273
Stream size : 262 MiB (99%)
Title : VideoHandle
Language : English
Encoded date : UTC 2014-01-29 21:18:36
Tagged date : UTC 2014-01-29 21:18:36
mdhd_Duration : 129516

Audio
ID : 2
Format : AAC
Format/Info : Advanced Audio Codec
Format profile : LC
Codec ID : 40
Duration : 2mn 9s
Source duration : 2mn 9s
Source_Duration_FirstFrame : 8ms
Bit rate mode : Constant
Bit rate : 128 Kbps
Channel(s) : 2 channels
Channel positions : Front: L R
Sampling rate : 48.0 KHz
Compression mode : Lossy
Stream size : 1.93 MiB (1%)
Source stream size : 1.93 MiB (1%)
Title : SoundHandle
Language : English
Encoded date : UTC 2014-01-29 21:18:36
Tagged date : UTC 2014-01-29 21:18:36
mdhd_Duration : 129749
29th October 2014, 06:22 AM   |  #2  
Junior Member
Thanks Meter: 0
 
14 posts
Join Date:Joined: Aug 2014
Hello, I am not sure if the Adoreshare .mov video converter can help you, this video converter can help you convert videos to other formats so you can play on different device, you can try, I am not sure if it works, just got it on Google
Last edited by darryer; 29th October 2014 at 08:22 AM.
Post Reply Subscribe to Thread

Tags
video mp4 format stutter
Previous Thread Next Thread
Thread Tools Search this Thread
Search this Thread:

Advanced Search
Display Modes