FORUMS
Remove All Ads from XDA
Honor 7x
Win an Honor 7X!

MX Player Custom Codec [DTS Support]

5,930 posts
Thanks Meter: 6,495
 
By USBhost, Recognized Contributor on 19th February 2013, 08:52 PM
Post Reply Email Thread
5th July 2017, 01:53 PM |#2081  
j1gga84's Avatar
Senior Member
Flag Bremen
Thanks Meter: 2,240
 
More
I don't get it..
On apkmirror.com there is MX Player Pro 1.9.1 but in play store it is still 1.8.20..
Is 1.9.1 still a beta or was it stopped again?

Regards

Gesendet von meinem SM-G900F mit Tapatalk
The Following User Says Thank You to j1gga84 For This Useful Post: [ View ] Gift j1gga84 Ad-Free
 
 
5th July 2017, 01:59 PM |#2082  
TheC92's Avatar
Member
Thanks Meter: 75
 
More
Quote:
Originally Posted by j1gga84

I don't get it..
On apkmirror.com there is MX Player Pro 1.9.1 but in play store it is still 1.8.20..
Is 1.9.1 still a beta or was it stopped again?

Regards

Gesendet von meinem SM-G900F mit Tapatalk

https://play.google.com/apps/testing...ideoplayer.pro

A few days ago, the beta version of the Pro version came back.

Sent from my Nextbit Robin using XDA Labs
The Following 3 Users Say Thank You to TheC92 For This Useful Post: [ View ] Gift TheC92 Ad-Free
6th July 2017, 05:19 AM |#2083  
Junior Member
Thanks Meter: 1
 
More
Quote:
Originally Posted by Thirumalai.K

We select the stable FFmpeg version rather than the new. FFmpeg 3.2.4 was the latest one when we have started stabilizing the 1.9.x.
We will upgrade the FFmpeg again if it's required. So, no need to worry about it.

Just checked and it looks like 3.3 is the latest stable release as of months ago.
7th July 2017, 04:18 PM |#2084  
Member
Thanks Meter: 41
 
More
Quote:
Originally Posted by ela1103

Watch the movies in mx player 1080p mkv format with DTS audio and 5.1 audio track.My mobile is moto defy arm v7 1.1GHz

ya Latest Official version also Support
9th July 2017, 08:31 AM |#2085  
SoreGums's Avatar
Member
Flag Brisbane
Thanks Meter: 18
 
More
still chokes on HEVC 10bit
files play flawlessy on windows 10 with MPC-HC 64-bit v1.7.10 (d911f14)

updated to testing version of mx player pro (2017.07.09) and 2017-06-06 aio codec on shieldtv

the files play however can't seek and on this file it just stopped playing around 27mins.
took forever to get past that point (sw decode is able to seek, so start playback, switch to sw (after enabling it in settings), seek to 29mins, switch back to hw+ for smooth playback

Code:
Format                                   : Matroska
Format version                           : Version 4 / Version 2
File size                                : 3.72 GiB
Duration                                 : 58 min 8 s
Overall bit rate mode                    : Variable
Overall bit rate                         : 9 158 kb/s
Encoded date                             : UTC 2016-02-10 10:51:06
Writing application                      : mkvmerge v8.8.0 ('Wind at my back') 64bit
Writing library                          : libebml v1.3.3 + libmatroska v1.4.4

Video
ID                                       : 1
Format                                   : HEVC
Format/Info                              : High Efficiency Video Coding
Format profile                           : Main 10@L4@Main
Codec ID                                 : V_MPEGH/ISO/HEVC
Duration                                 : 58 min 8 s
Bit rate                                 : 4 185 kb/s
Width                                    : 1 920 pixels
Height                                   : 1 080 pixels
Display aspect ratio                     : 16:9
Frame rate mode                          : Constant
Frame rate                               : 23.976 (24000/1001) FPS
Color space                              : YUV
Chroma subsampling                       : 4:2:0
Bit depth                                : 10 bits
Bits/(Pixel*Frame)                       : 0.084
Stream size                              : 1.70 GiB (46%)
Writing library                          : x265 1.9+3-548a45bbf223:[Windows][GCC 5.3.0][64 bit] 10bit
Encoding settings                        : wpp / ctu=64 / min-cu-size=8 / max-tu-size=32 / tu-intra-depth=2 / tu-inter-depth=2 / me=3 / subme=3 / merange=57 / rect / amp / max-merge=3 / temporal-mvp / early-skip / rdpenalty=0 / no-tskip / no-tskip-fast / strong-intra-smoothing / no-lossless / no-cu-lossless / no-constrained-intra / no-fast-intra / open-gop / no-temporal-layers / interlace=0 / keyint=250 / min-keyint=23 / scenecut=40 / rc-lookahead=60 / lookahead-slices=1 / bframes=8 / bframe-bias=0 / b-adapt=2 / ref=4 / limit-refs=2 / limit-modes / weightp / weightb / aq-mode=3 / qg-size=16 / aq-strength=1.00 / cbqpoffs=0 / crqpoffs=0 / rd=6 / psy-rd=2.00 / rdoq-level=0 / psy-rdoq=0.00 / no-rd-refine / signhide / deblock=-2:-2 / sao / no-sao-non-deblock / b-pyramid / cutree / no-intra-refresh / rc=crf / crf=23.5 / qcomp=0.80 / qpmin=0 / qpmax=51 / qpstep=4 / ipratio=1.10 / pbratio=1.10
Default                                  : Yes
Forced                                   : No

Audio
ID                                       : 2
Format                                   : Atmos / TrueHD
Codec ID                                 : A_TRUEHD
Duration                                 : 58 min 8 s
Bit rate mode                            : Variable
Bit rate                                 : 4 891 kb/s
Maximum bit rate                         : 7 197 kb/s
Channel(s)                               : Object Based / 8 channels
Channel positions                        : Object Based / Front: L C R, Side: L R, Back: L R, LFE
Sampling rate                            :  / 48.0 kHz
Frame rate                               : 1 200.000 FPS (40 spf)
Compression mode                         : Lossless
Delay relative to video                  : 1 ms
Stream size                              : 1.99 GiB (53%)
Language                                 : English
Default                                  : No
Forced                                   : No

Text #1
ID                                       : 3
Format                                   : PGS
Muxing mode                              : zlib
Codec ID                                 : S_HDMV/PGS
Codec ID/Info                            : Picture based subtitle format used on BDs/HD-DVDs
Duration                                 : 54 min 59 s
Bit rate                                 : 12.9 kb/s
Count of elements                        : 1434
Stream size                              : 5.07 MiB (0%)
Language                                 : English
Default                                  : No
Forced                                   : No

Text #2
ID                                       : 4
Format                                   : PGS
Muxing mode                              : zlib
Codec ID                                 : S_HDMV/PGS
Codec ID/Info                            : Picture based subtitle format used on BDs/HD-DVDs
Duration                                 : 5 min 39 s
Bit rate                                 : 8 180 b/s
Count of elements                        : 104
Stream size                              : 339 KiB (0%)
Language                                 : English
Default                                  : Yes
Forced                                   : Yes

Menu
00:00:00.000                             : en:Chapter 01
00:00:06.297                             : en:Chapter 02
00:01:53.321                             : en:Chapter 03
00:07:13.349                             : en:Chapter 04
00:16:25.150                             : en:Chapter 05
00:26:15.031                             : en:Chapter 06
00:36:19.844                             : en:Chapter 07
00:43:21.974                             : en:Chapter 08
00:57:00.542                             : en:Chapter 09
9th July 2017, 09:33 AM |#2086  
Senior Member
Thanks Meter: 37
 
More
Hi guys.Just a question.Where can i find the codecs for Mxplayer PRO last vs?THX in advance.

*S7 Edge(neon vs)
9th July 2017, 09:43 AM |#2087  
JFK1975's Avatar
Senior Member
Flag Berlin
Thanks Meter: 79
 
More
Quote:
Originally Posted by ettore88

Hi guys.Just a question.Where can i find the codecs for Mxplayer PRO last vs?THX in advance.

*S7 Edge(neon vs)

First post first page
The Following User Says Thank You to JFK1975 For This Useful Post: [ View ] Gift JFK1975 Ad-Free
10th July 2017, 10:56 AM |#2088  
Thirumalai.K's Avatar
Recognized Contributor
Thanks Meter: 4,038
 
More
Quote:
Originally Posted by SoreGums

still chokes on HEVC 10bit
files play flawlessy on windows 10 with MPC-HC 64-bit v1.7.10 (d911f14)

updated to testing version of mx player pro (2017.07.09) and 2017-06-06 aio codec on shieldtv

the files play however can't seek and on this file it just stopped playing around 27mins.
took forever to get past that point (sw decode is able to seek, so start playback, switch to sw (after enabling it in settings), seek to 29mins, switch back to hw+ for smooth playback

Code:
Format                                   : Matroska
Format version                           : Version 4 / Version 2
File size                                : 3.72 GiB
Duration                                 : 58 min 8 s
Overall bit rate mode                    : Variable
Overall bit rate                         : 9 158 kb/s
Encoded date                             : UTC 2016-02-10 10:51:06
Writing application                      : mkvmerge v8.8.0 ('Wind at my back') 64bit
Writing library                          : libebml v1.3.3 + libmatroska v1.4.4

Video
ID                                       : 1
Format                                   : HEVC
Format/Info                              : High Efficiency Video Coding
Format profile                           : Main 10@L4@Main
Codec ID                                 : V_MPEGH/ISO/HEVC
Duration                                 : 58 min 8 s
Bit rate                                 : 4 185 kb/s
Width                                    : 1 920 pixels
Height                                   : 1 080 pixels
Display aspect ratio                     : 16:9
Frame rate mode                          : Constant
Frame rate                               : 23.976 (24000/1001) FPS
Color space                              : YUV
Chroma subsampling                       : 4:2:0
Bit depth                                : 10 bits
Bits/(Pixel*Frame)                       : 0.084
Stream size                              : 1.70 GiB (46%)
Writing library                          : x265 1.9+3-548a45bbf223:[Windows][GCC 5.3.0][64 bit] 10bit
Encoding settings                        : wpp / ctu=64 / min-cu-size=8 / max-tu-size=32 / tu-intra-depth=2 / tu-inter-depth=2 / me=3 / subme=3 / merange=57 / rect / amp / max-merge=3 / temporal-mvp / early-skip / rdpenalty=0 / no-tskip / no-tskip-fast / strong-intra-smoothing / no-lossless / no-cu-lossless / no-constrained-intra / no-fast-intra / open-gop / no-temporal-layers / interlace=0 / keyint=250 / min-keyint=23 / scenecut=40 / rc-lookahead=60 / lookahead-slices=1 / bframes=8 / bframe-bias=0 / b-adapt=2 / ref=4 / limit-refs=2 / limit-modes / weightp / weightb / aq-mode=3 / qg-size=16 / aq-strength=1.00 / cbqpoffs=0 / crqpoffs=0 / rd=6 / psy-rd=2.00 / rdoq-level=0 / psy-rdoq=0.00 / no-rd-refine / signhide / deblock=-2:-2 / sao / no-sao-non-deblock / b-pyramid / cutree / no-intra-refresh / rc=crf / crf=23.5 / qcomp=0.80 / qpmin=0 / qpmax=51 / qpstep=4 / ipratio=1.10 / pbratio=1.10
Default                                  : Yes
Forced                                   : No

Audio
ID                                       : 2
Format                                   : Atmos / TrueHD
Codec ID                                 : A_TRUEHD
Duration                                 : 58 min 8 s
Bit rate mode                            : Variable
Bit rate                                 : 4 891 kb/s
Maximum bit rate                         : 7 197 kb/s
Channel(s)                               : Object Based / 8 channels
Channel positions                        : Object Based / Front: L C R, Side: L R, Back: L R, LFE
Sampling rate                            :  / 48.0 kHz
Frame rate                               : 1 200.000 FPS (40 spf)
Compression mode                         : Lossless
Delay relative to video                  : 1 ms
Stream size                              : 1.99 GiB (53%)
Language                                 : English
Default                                  : No
Forced                                   : No

Text #1
ID                                       : 3
Format                                   : PGS
Muxing mode                              : zlib
Codec ID                                 : S_HDMV/PGS
Codec ID/Info                            : Picture based subtitle format used on BDs/HD-DVDs
Duration                                 : 54 min 59 s
Bit rate                                 : 12.9 kb/s
Count of elements                        : 1434
Stream size                              : 5.07 MiB (0%)
Language                                 : English
Default                                  : No
Forced                                   : No

Text #2
ID                                       : 4
Format                                   : PGS
Muxing mode                              : zlib
Codec ID                                 : S_HDMV/PGS
Codec ID/Info                            : Picture based subtitle format used on BDs/HD-DVDs
Duration                                 : 5 min 39 s
Bit rate                                 : 8 180 b/s
Count of elements                        : 104
Stream size                              : 339 KiB (0%)
Language                                 : English
Default                                  : Yes
Forced                                   : Yes

Menu
00:00:00.000                             : en:Chapter 01
00:00:06.297                             : en:Chapter 02
00:01:53.321                             : en:Chapter 03
00:07:13.349                             : en:Chapter 04
00:16:25.150                             : en:Chapter 05
00:26:15.031                             : en:Chapter 06
00:36:19.844                             : en:Chapter 07
00:43:21.974                             : en:Chapter 08
00:57:00.542                             : en:Chapter 09

Can you provide a sample clip / link to sample clip that has issues?
It will be better if you can collect a bug report right after reproducing the issue & share here.
10th July 2017, 11:36 AM |#2089  
Junior Member
Flag jakarta timur
Thanks Meter: 4
 
More
thanks for this custom codec post
10th July 2017, 12:27 PM |#2090  
Senior Member
Thanks Meter: 494
 
More
Quote:
Originally Posted by jagawana27

reserved

For what? This ain't 'your' topic

Sent from my Nexus 6P with Tapatalk
The Following 2 Users Say Thank You to Ch3vr0n For This Useful Post: [ View ] Gift Ch3vr0n Ad-Free
11th July 2017, 03:27 AM |#2091  
ChazzMatt's Avatar
Recognized Contributor
Flag Atlanta, Georgia
Thanks Meter: 4,866
 
Donate to Me
More
Quote:
Originally Posted by jagawana27

reserved

Quote:
Originally Posted by Ch3vr0n

For what? This ain't 'your' topic

Sent from my Nexus 6P with Tapatalk

Seriously, "reserved" on page 209 of any thread ? Why?

I just started page 210, so who is going to go back and read your "reserved" comment 209 -- whenever you decide to write something?
Post Reply Subscribe to Thread

Tags
mxplayer custom codec dts ffmpeg

Guest Quick Reply (no urls or BBcode)
Message:
Previous Thread Next Thread
Thread Tools Search this Thread
Search this Thread:

Advanced Search
Display Modes