FORUMS
Remove All Ads from XDA
Honor 7x
Win an Honor 7X!

Mxplayer can't play video m2ts. i hope everyone help me !

4 posts
Thanks Meter: 0
 
By spartacus-sparta, Junior Member on 1st March 2017, 12:59 AM
Post Reply Email Thread
I used mxplayer v1.8.17 and i tried to play video m2ts. It can play video m2ts but it's same slow motion. Mxplay can't play but VLC sofware can play video normal.( I used phone sony m4 aqua)
Video detail
ID : 4113 (0x1011)
Menu ID : 1 (0x1)
Format : AVC
Format/Info : Advanced Video Codec
Format profile : High@L4.1
Format settings, CABAC : Yes
Format settings, ReFrames : 3 frames
Format settings, GOP : M=3, N=15
Codec ID : 27
Duration : 3 min 18 s
Bit rate mode : Variable
Bit rate : 20.1 Mb/s
Maximum bit rate : 35.0 Mb/s
Width : 1 920 pixels
Height : 1 080 pixels
Display aspect ratio : 16:9
Frame rate : 29.970 (30000/1001) FPS
Standard : NTSC
Color space : YUV
Chroma subsampling : 4:2:0
Bit depth : 8 bits
Scan type : Interlaced
Scan type, store method : Separated fields
Scan order : Top Field First
Bits/(Pixel*Frame) : 0.323
Stream size : 475 MiB (93%)
Color range : Limited
Color primaries : BT.709
Transfer characteristics : BT.709
Matrix coefficients : BT.709

I tried to play other video m2ts , mxplayer can player normal but VLC can't not. I don't undestand.
Video detail
ID : 4113 (0x1011)
Menu ID : 1 (0x1)
Format : MPEG Video
Format version : Version 2
Format profile : Main@High
Format settings, BVOP : Yes
Format settings, Matrix : Default
Format settings, GOP : M=3, N=15
Format settings, picture st : Frame
Codec ID : 2
Duration : 3 min 55 s
Bit rate mode : Variable
Bit rate : 26.1 Mb/s
Width : 1 920 pixels
Height : 1 080 pixels
Display aspect ratio : 16:9
Frame rate : 29.970 (30000/1001) FPS
Color space : YUV
Chroma subsampling : 4:2:0
Bit depth : 8 bits
Scan type : Interlaced
Scan order : Top Field First
Compression mode : Lossy
Bits/(Pixel*Frame) : 0.420
Time code of first frame : 00:00:00:00
Time code source : Group of pictures header
Stream size : 733 MiB (92%)
 
 
1st March 2017, 06:04 AM |#2  
InvalidDNA's Avatar
Member
Thanks Meter: 108
 
More
Quote:
Originally Posted by spartacus-sparta

I used mxplayer v1.8.17 and i tried to play video m2ts. It can play video m2ts but it's same slow motion. Mxplay can't play but VLC sofware can play video normal.( I used phone sony m4 aqua)
Video detail
ID : 4113 (0x1011)
Menu ID : 1 (0x1)
Format : AVC
Format/Info : Advanced Video Codec
Format profile : High@L4.1
Format settings, CABAC : Yes
Format settings, ReFrames : 3 frames
Format settings, GOP : M=3, N=15
Codec ID : 27
Duration : 3 min 18 s
Bit rate mode : Variable
Bit rate : 20.1 Mb/s
Maximum bit rate : 35.0 Mb/s
Width : 1 920 pixels
Height : 1 080 pixels
Display aspect ratio : 16:9
Frame rate : 29.970 (30000/1001) FPS
Standard : NTSC
Color space : YUV
Chroma subsampling : 4:2:0
Bit depth : 8 bits
Scan type : Interlaced
Scan type, store method : Separated fields
Scan order : Top Field First
Bits/(Pixel*Frame) : 0.323
Stream size : 475 MiB (93%)
Color range : Limited
Color primaries : BT.709
Transfer characteristics : BT.709
Matrix coefficients : BT.709

I tried to play other video m2ts , mxplayer can player normal but VLC can't not. I don't undestand.
Video detail
ID : 4113 (0x1011)
Menu ID : 1 (0x1)
Format : MPEG Video
Format version : Version 2
Format profile : Main@High
Format settings, BVOP : Yes
Format settings, Matrix : Default
Format settings, GOP : M=3, N=15
Format settings, picture st : Frame
Codec ID : 2
Duration : 3 min 55 s
Bit rate mode : Variable
Bit rate : 26.1 Mb/s
Width : 1 920 pixels
Height : 1 080 pixels
Display aspect ratio : 16:9
Frame rate : 29.970 (30000/1001) FPS
Color space : YUV
Chroma subsampling : 4:2:0
Bit depth : 8 bits
Scan type : Interlaced
Scan order : Top Field First
Compression mode : Lossy
Bits/(Pixel*Frame) : 0.420
Time code of first frame : 00:00:00:00
Time code source : Group of pictures header
Stream size : 733 MiB (92%)

Goto Settings > Decoder & enable H/W+ Decoder. Now try the video in H/W+ decoder. It should work for you.

Sent from my SM-G900H using Tapatalk
2nd March 2017, 11:22 AM |#3  
OP Junior Member
Thanks Meter: 0
 
More
ok. i' thankyou very much
Post Reply Subscribe to Thread

Guest Quick Reply (no urls or BBcode)
Message:
Previous Thread Next Thread
Thread Tools Search this Thread
Search this Thread:

Advanced Search
Display Modes