FORUMS
Remove All Ads from XDA

Video green screen

173 posts
Thanks Meter: 31
 
By dhruvdave, Senior Member on 21st April 2017, 07:11 AM
Post Reply Email Thread
I am using mx player 1.8.17 and getting green screen.Other mx player beta 1.1.02 is able to play file but dts codec is not supported nor there is option add custom codec for mx player beta 1.1.02 .Please fix it

eneral
Unique ID : 213948756896320254439955815930447190504 (0xA0F508209408FDFFBF37853F7C32D9E8)
Complete name Ok Jaanu (2017) Hindi 1080p BluRay x265 HEVC DTS 5.1 E-Sub - Team Rainbow\Sample.mkv
Format : Matroska
Format version : Version 4 / Version 2
File size : 22.8 MiB
Duration : 1 min 2 s
Overall bit rate : 3 057 kb/s
Movie name : Encoded By HiBaNA
Encoded date : UTC 2017-03-27 10:12:06
Writing application : mkvmerge v9.8.0 ('Kuglblids') 64bit
Writing library : libebml v1.3.4 + libmatroska v1.4.5

Video
ID : 1
Format : HEVC
Format/Info : High Efficiency Video Coding
Format profile : Main 10@L4@Main
Codec ID : V_MPEGH/ISO/HEVC
Duration : 1 min 2 s
Bit rate : 2 286 kb/s
Width : 1 920 pixels
Height : 800 pixels
Display aspect ratio : 2.40:1
Frame rate mode : Constant
Frame rate : 24.000 FPS
Color space : YUV
Chroma subsampling : 4:2:0
Bit depth : 10 bits
Bits/(Pixel*Frame) : 0.062
Stream size : 17.0 MiB (75%)
Title : Encoded By HiBaNA
Writing library : x265 2.3+22-db5e22b856f5:[Windows][GCC 6.3.0][64 bit] 10bit
Encoding settings : cpuid=1173503 / frame-threads=1 / numa-pools=4 / wpp / no-pmode / no-pme / no-psnr / no-ssim / log-level=2 / input-csp=1 / input-res=1920x800 / interlace=0 / total-frames=195888 / level-idc=0 / high-tier=1 / uhd-bd=0 / ref=4 / no-allow-non-conformance / no-repeat-headers / annexb / no-aud / no-hrd / info / hash=0 / no-temporal-layers / open-gop / min-keyint=24 / keyint=250 / bframes=0 / b-adapt=0 / no-b-pyramid / bframe-bias=0 / rc-lookahead=0 / lookahead-slices=4 / scenecut=0 / no-intra-refresh / ctu=64 / min-cu-size=8 / rect / no-amp / max-tu-size=32 / tu-inter-depth=1 / tu-intra-depth=1 / limit-tu=0 / rdoq-level=2 / dynamic-rd=0.00 / signhide / no-tskip / nr-intra=0 / nr-inter=0 / no-constrained-intra / strong-intra-smoothing / max-merge=3 / limit-refs=3 / limit-modes / me=3 / subme=3 / merange=57 / temporal-mvp / weightp / no-weightb / no-analyze-src-pics / deblock=0:0 / sao / no-sao-non-deblock / rd=4 / no-early-skip / rskip / no-fast-intra / no-tskip-fast / no-cu-lossless / no-b-intra / rdpenalty=0 / psy-rd=2.00 / psy-rdoq=1.00 / no-rd-refine / analysis-mode=0 / no-lossless / cbqpoffs=0 / crqpoffs=0 / rc=abr / bitrate=2911 / qcomp=0.60 / qpstep=4 / stats-write=0 / stats-read=0 / ipratio=1.40 / aq-mode=1 / aq-strength=1.00 / no-cutree / zone-count=0 / no-strict-cbr / qg-size=32 / no-rc-grain / qpmax=69 / qpmin=0 / sar=0 / overscan=0 / videoformat=5 / range=0 / colorprim=2 / transfer=2 / colormatrix=2 / chromaloc=0 / display-window=0 / max-cll=0,0 / min-luma=0 / max-luma=1023 / log2-max-poc-lsb=8 / vui-timing-info / vui-hrd-info / slices=1 / opt-qp-pps / opt-ref-list-length-pps / no-multi-pass-opt-rps / scenecut-bias=0.05 / no-opt-cu-delta-qp / no-aq-motion / no-hdr / no-hdr-opt / refine-level=5
Default : Yes
Forced : No

Audio
ID : 2
Format : DTS
Format/Info : Digital Theater Systems
Mode : 16
Format settings, Endianness : Big
Codec ID : A_DTS
Duration : 1 min 2 s
Bit rate mode : Constant
Bit rate : 768 kb/s
Channel(s) : 6 channels
Channel positions : Front: L C R, Side: L R, LFE
Sampling rate : 48.0 kHz
Frame rate : 93.750 FPS (512 spf)
Bit depth : 24 bits
Compression mode : Lossy
Delay relative to video : 8 ms
Stream size : 5.72 MiB (25%)
Title : Encoded By HiBaNA
Language : Hindi
Default : Yes
Forced : No

Text
ID : 3
Format : UTF-8
Codec ID : S_TEXT/UTF8
Codec ID/Info : UTF-8 Plain Text
Duration : 39 s 334 ms
Bit rate : 45 b/s
Count of elements : 11
Stream size : 225 Bytes (0%)
Title : English SRT
Language : English
Default : Yes
Forced : No
 
 
24th April 2017, 05:32 AM |#2  
Thirumalai.K's Avatar
Recognized Contributor
Flag Tamilnadu
Thanks Meter: 3,930
 
More
Quote:
Originally Posted by dhruvdave

I am using mx player 1.8.17 and getting green screen.Other mx player beta 1.1.02 is able to play file but dts codec is not supported nor there is option add custom codec for mx player beta 1.1.02 .Please fix it

it will be fixed on our mainline versions on the next major update.
Beta versions doesn't support custom codec yet.

you can use the folowing temporary workaround on the main versions to avoid such green screen.
goto Settings » Decoder & change the color space to RGB16 or RGB32
24th April 2017, 05:45 AM |#3  
OP Senior Member
Thanks Meter: 31
 
More
Quote:
Originally Posted by Thirumalai.K

it will be fixed on our mainline versions on the next major update.
Beta versions doesn't support custom codec yet.

you can use the folowing temporary workaround on the main versions to avoid such green screen.
goto Settings » Decoder & change the color space to RGB16 or RGB32

Thank you
Post Reply Subscribe to Thread

Guest Quick Reply (no urls or BBcode)
Message:
Previous Thread Next Thread
Thread Tools Search this Thread
Search this Thread:

Advanced Search
Display Modes