FORUMS
Remove All Ads from XDA

This video cannot play correctly with Mx player

4 posts
Thanks Meter: 0
 
By chaningbox, Junior Member on 30th October 2017, 09:36 AM
Post Reply Email Thread
Complete name : D:\VIDEO\XXX.mp4
Format : MPEG-4
Format profile : Base Media
Codec ID : isom (isom/iso2/avc1/mp41)
File size : 69.3 MiB
Duration : 17 min 27 s
Overall bit rate mode : Variable
Overall bit rate : 555 kb/s
Encoded date : UTC 1970-01-01 00:00:00
Tagged date : UTC 1970-01-01 00:00:00

Video
ID : 1
Format : AVC
Format/Info : Advanced Video Codec
Format profile : High@L3
Format settings, CABAC : Yes
Format settings, RefFrames : 4 frames
Codec ID : avc1
Codec ID/Info : Advanced Video Coding
Duration : 17 min 27 s
Bit rate : 450 kb/s
Width : 640 pixels
Height : 360 pixels
Display aspect ratio : 16:9
Frame rate mode : Variable
Frame rate : 30.000 FPS
Color space : YUV
Chroma subsampling : 4:2:0
Bit depth : 8 bits
Scan type : Progressive
Bits/(Pixel*Frame) : 0.065
Stream size : 56.4 MiB (81%)
Writing library : x264 core 148
Encoding settings : cabac=1 / ref=2 / deblock=1:0:0 / analyse=0x3:0x113 / me=hex / subme=6 / psy=1 / psy_rd=1.00:0.00 / mixed_ref=1 / me_range=16 / chroma_me=1 / trellis=1 / 8x8dct=1 / cqm=0 / deadzone=21,11 / fast_pskip=1 / chroma_qp_offset=-2 / threads=1 / lookahead_threads=1 / sliced_threads=0 / nr=0 / decimate=1 / interlaced=0 / bluray_compat=0 / constrained_intra=0 / bframes=3 / b_pyramid=2 / b_adapt=1 / b_bias=0 / direct=1 / weightb=1 / open_gop=0 / weightp=1 / keyint=50 / keyint_min=5 / scenecut=40 / intra_refresh=0 / rc_lookahead=30 / rc=cbr / mbtree=1 / bitrate=450 / ratetol=1.0 / qcomp=0.60 / qpmin=0 / qpmax=69 / qpstep=4 / vbv_maxrate=450 / vbv_bufsize=1800 / nal_hrd=none / filler=0 / ip_ratio=1.40 / aq=1:1.00
Encoded date : UTC 1970-01-01 00:00:00
Tagged date : UTC 1970-01-01 00:00:00

Audio
ID : 2
Format : AAC
Format/Info : Advanced Audio Codec
Format profile : LC
Codec ID : 40
Duration : 17 min 27 s
Bit rate mode : Variable
Bit rate : 96.0 kb/s
Channel(s) : 2 channels
Channel positions : Front: L R
Sampling rate : 44.1 kHz
Frame rate : 43.066 FPS (1024 SPF)
Compression mode : Lossy
Stream size : 12.0 MiB (17%)
Encoded date : UTC 1970-01-01 00:00:00
Tagged date : UTC 1970-01-01 00:00:00
 
 
30th October 2017, 09:51 AM |#2  
Thirumalai.K's Avatar
Recognized Contributor
Thanks Meter: 4,030
 
More
@chaningbox

Can you specify what happens exactly?
Is it possible to share a sample clip & bug report from MX Player
30th October 2017, 10:00 AM |#3  
OP Junior Member
Thanks Meter: 0
 
More
Quote:
Originally Posted by Thirumalai.K

@chaningbox

Can you specify what happens exactly?
Is it possible to share a sample clip & bug report from MX Player

It only can play with hardware decode,cannot with hardware decode + and software decode,have no picture. With hardware decode,it only can play half movie.
I use mpc-hc on pc,it can play well.
31st October 2017, 01:12 AM |#4  
OP Junior Member
Thanks Meter: 0
 
More
Quote:
Originally Posted by Thirumalai.K

@chaningbox

Can you specify what happens exactly?
Is it possible to share a sample clip & bug report from MX Player

drive.google.com/file/d/0B-55LnvgqQwUSDhOQ280RGVMMXM/view?usp=drivesdk
31st October 2017, 05:20 AM |#5  
Thirumalai.K's Avatar
Recognized Contributor
Thanks Meter: 4,030
 
More
Quote:
Originally Posted by chaningbox

drive.google.com/file/d/0B-55LnvgqQwUSDhOQ280RGVMMXM/view?usp=drivesdk

It looks like a partially downloaded/corrupted video. FFMpeg has failed to detect pixel format & failed to identify keyframes.
Can you share the video with us? We need to analyse the video.
31st October 2017, 07:16 AM |#6  
OP Junior Member
Thanks Meter: 0
 
More
Sorry, I can't,it's a porn video.😂
31st October 2017, 12:17 PM |#7  
Thirumalai.K's Avatar
Recognized Contributor
Thanks Meter: 4,030
 
More
Quote:
Originally Posted by chaningbox

Sorry, I can't,it's a porn video.😂

It's very difficult to address the issue without checking the video.
If it's possible, upload the video somewhere else like Google Drive & shares the link by PM.
13th November 2017, 07:46 AM |#8  
Junior Member
Thanks Meter: 0
 
More
Repair Videos with VLC Player
1. Launch VLC Player and go to Media, and then select Convert or Save
2: Next, add input files or streams that need to be transcoded, and then press Convert or Save
3: In the Convert window that appears, provide the file name for the destination file
4: Next, select the desired Codec from the profile list.
6: You can also select to add a new profile or delete any existing profile
7: Next, press Start
Above are the techniques to repair video files. You will be able to play your videos in VLC player or other media players. If not, then go for Video Repair Tool!
13th November 2017, 03:02 PM |#9  
Thirumalai.K's Avatar
Recognized Contributor
Thanks Meter: 4,030
 
More
Quote:
Originally Posted by chaningbox

It only can play with hardware decode,cannot with hardware decode + and software decode,have no picture. With hardware decode,it only can play half movie.
I use mpc-hc on pc,it can play well.

Quote:
Originally Posted by ronaldporter77

1. Launch VLC Player and go to Media, and then select Convert or Save
2: Next, add input files or streams that need to be transcoded, and then press Convert or Save
3: In the Convert window that appears, provide the file name for the destination file
4: Next, select the desired Codec from the profile list.
6: You can also select to add a new profile or delete any existing profile
7: Next, press Start
Above are the techniques to repair video files. You will be able to play your videos in VLC player or other media players. If not, then go for Video Repair Tool!

Our developers are working on it. We will improve the broken file handling issues in future versions.
Post Reply Subscribe to Thread

Guest Quick Reply (no urls or BBcode)
Message:
Previous Thread Next Thread
Thread Tools Search this Thread
Search this Thread:

Advanced Search
Display Modes