FORUMS
Remove All Ads from XDA
Honor 7x
Win an Honor 7X!

[ROM][17/7/23][4.4.4] SlimKat | The slimmest & most secure KitKat ROM for HTC Desire!

2,566 posts
Thanks Meter: 5,606
 
By spezi77, Recognized Developer / Contributor on 31st December 2015, 06:27 PM
Post Reply Email Thread
15th August 2017, 06:32 PM |#321  
spezi77's Avatar
OP Recognized Developer / Contributor
Flag /home/xda
Thanks Meter: 5,606
 
Donate to Me
More
Quote:
Originally Posted by maxcesar

I confirm.
Without Mounts2SD it was impossible to install any app. Memory full.
I installed Mounts2SD from play store and now I was able to install many programs:
- file manager
- sygic (with at least 2 full nations)
- chrome
- and many more.
Thank youfor your wonderfull job.
Max

It sounds like a2sd installation doesn't work for everyone, and/or has a problem under certain circumstances. I have no idea how to fix that without someone gathering more facts on the technical side.

I personally think that a2sd is the more thoughthru solution, and would bring better results assuming that it works flawless.
The Following 2 Users Say Thank You to spezi77 For This Useful Post: [ View ]
 
 
19th August 2017, 11:34 PM |#322  
Junior Member
Thanks Meter: 0
 
More
I tried to revive my old phone. Flashed successfully, but phone does not boot, only Slimkat logo flashes on screen. How to boot my phone?
19th August 2017, 11:46 PM |#323  
spezi77's Avatar
OP Recognized Developer / Contributor
Flag /home/xda
Thanks Meter: 5,606
 
Donate to Me
More
Quote:
Originally Posted by vitos_rnd

I tried to revive my old phone. Flashed successfully, but phone does not boot, only Slimkat logo flashes on screen. How to boot my phone?

Try to take a logcat.

My guess is that you didn't meet one of the prerequisites mentioned in the OP.

Sent from my Pixel XL using XDA Labs
28th September 2017, 02:31 AM |#324  
Member
Thanks Meter: 13
 
More
I spent some time today and updated with the latest rom. for the first try, i followed the clean install steps but i encountered some weird behavior. Then, I did full wipe and installed the Dec build. Same result. The third try, I deleted everything in SD card ezcept for the July rom and gapp. Clean install. This time, everything works fine.

I installed some apps and got the storage full message. Use mount2sd and things are fine again.

Thanks for this wonderful rom and all the people contributed their comments and ideas.
The Following User Says Thank You to yellowpage For This Useful Post: [ View ] Gift yellowpage Ad-Free
17th November 2017, 04:59 PM |#325  
Junior Member
Thanks Meter: 2
 
More
New installation here! Going gappsless with the help of fdroid and yalp store. I'd like to squeeze a bit more battery and power and Google Service are too hungry for this device.
I started today with the usual FOSS app and this old old phone is suprisingly useful. So thank you for this exceptional rom!
The Following User Says Thank You to Sbranzo For This Useful Post: [ View ] Gift Sbranzo Ad-Free
2nd December 2017, 12:59 PM |#326  
Member
Thanks Meter: 4
 
More
This rom is stunning, thank you! I had to use Mount2sd, the terminal emulator method didn't work
2nd December 2017, 02:03 PM |#327  
Member
Flag Linz
Thanks Meter: 8
 
More
Quote:
Originally Posted by cembellines

This rom is stunning, thank you! I had to use Mount2sd, the terminal emulator method didn't work

I also noticed this behavior and had the same troubles in the past. I can report that the sequence is essential for success.
- Wipe system,cache,dalvik
- install rom
- reboot, let settle the them
- reboot
- terminal, su, a2sd, ...
- reboot
- reboot to recovery
- install gapps
- reboot

at this point you can modify settings, install apps, ...

It's not recomended to combine steps (reduce reboots) to speed-up the procedure.

I also have to move data to card. Otherwise i'm not able to install any app due to memory lack.
2nd December 2017, 05:53 PM |#328  
Senior Member
Flag Kraków
Thanks Meter: 743
 
More
Video HTC Desire (Bravo) as a driving recorder
After many tests, I can recommend the only one camera application that records well in 640x480 resolution.

DailyRoads Voyager
or
DailyRoads Voyager Pro

Thanks to this Bravo can be used as a driving recorder, if you do not mind the lack of sound. Turning off the sound recording improves the video recording parameters.
I managed to record a few movies with sound that is fully synchronized with the picture (Syncho A-V).
Unfortunately, most movies do not have sound sync.

The author of the application who wrote to me that the application sends a request to the media server, but the server decides on the method of registration implementation depending on the possibilities.
The secret of the media server's operation is known only to good programmers ( = @spezi77 ).
Therefore, it is very difficult for the user to set kernel parameters so that the system is efficient for video recording.

I attach two logs informing about the parameters that were used in the application during recording.

Hi-bitrate (OK synchro A-V) - MediaInfo:
Code:
General
Complete name               : 640x480_br2M_15fps.mp4
Format                      : MPEG-4
Format profile              : Base Media
Codec ID                    : isom (isom/3gp4)
File size                   : 3.64 MiB
Duration                    : 21 s 56 ms
Overall bit rate mode       : Constant
Overall bit rate            : 1 450 kb/s
Encoded date                : UTC 2017-10-19 22:22:01
Tagged date                 : UTC 2017-10-19 22:22:01

Video
ID                          : 1
Format                      : MPEG-4 Visual
Format profile              : Core@L2
Format settings, BVOP       : Yes
Format settings, QPel       : No
Format settings, GMC        : No warppoints
Format settings, Matrix     : Default (H.263)
Codec ID                    : 20
Duration                    : 20 s 975 ms
Source duration             : 20 s 995 ms
Bit rate mode               : Constant
Bit rate                    : 1 356 kb/s
Nominal bit rate            : 256 kb/s
Width                       : 176 pixels
Original width              : 640 pixels
Height                      : 144 pixels
Original height             : 480 pixels
Display aspect ratio        : 1.222
Original display aspect rat : 4:3
Frame rate mode             : Variable
Frame rate                  : 11.431 FPS
Minimum frame rate          : 9.315 FPS
Maximum frame rate          : 12.272 FPS
Color space                 : YUV
Bit depth                   : 8 bits
Scan type                   : Progressive
Compression mode            : Lossy
Bits/(Pixel*Frame)          : 4.681
Stream size                 : 3.39 MiB (93%)
Source stream size          : 3.39 MiB (93%)
Title                       : VideoHandle
Language                    : English
Encoded date                : UTC 2017-10-19 22:22:01
Tagged date                 : UTC 2017-10-19 22:22:01
mdhd_Duration               : 20975

Audio
ID                          : 2
Format                      : AAC
Format/Info                 : Advanced Audio Codec
Format profile              : LC
Codec ID                    : 40
Duration                    : 21 s 56 ms
Bit rate mode               : Constant
Bit rate                    : 96.0 kb/s
Channel(s)                  : 1 channel
Channel positions           : Front: C
Sampling rate               : 16.0 kHz
Frame rate                  : 15.625 FPS (1024 spf)
Compression mode            : Lossy
Stream size                 : 247 KiB (7%)
Title                       : SoundHandle
Language                    : English
Encoded date                : UTC 2017-10-19 22:22:01
Tagged date                 : UTC 2017-10-19 22:22:01


Low-bitrate (NO synchro A-V) - MediaInfo:
Code:
General
Complete name               : 20171020152720_0_0_1000019.mp4
Format                      : MPEG-4
Format profile              : Base Media
Codec ID                    : isom (isom/3gp4)
File size                   : 2.66 MiB
Duration                    : 40 s 0 ms
Overall bit rate mode       : Constant
Overall bit rate            : 557 kb/s
Encoded date                : UTC 2017-10-20 13:28:02
Tagged date                 : UTC 2017-10-20 13:28:02

Video
ID                          : 1
Format                      : MPEG-4 Visual
Format profile              : Core@L2
Format settings, BVOP       : Yes
Format settings, QPel       : No
Format settings, GMC        : No warppoints
Format settings, Matrix     : Default (H.263)
Codec ID                    : 20
Duration                    : 39 s 455 ms
Source duration             : 39 s 570 ms
Bit rate mode               : Constant
Bit rate                    : 463 kb/s
Nominal bit rate            : 256 kb/s
Width                       : 176 pixels
Original width              : 640 pixels
Height                      : 144 pixels
Original height             : 480 pixels
Display aspect ratio        : 1.222
Original display aspect rat : 4:3
Rotation                    : 90°
Frame rate mode             : Variable
Frame rate                  : 3.765 FPS
Minimum frame rate          : 2.414 FPS
Maximum frame rate          : 6.093 FPS
Color space                 : YUV
Bit depth                   : 8 bits
Scan type                   : Progressive
Compression mode            : Lossy
Bits/(Pixel*Frame)          : 4.853
Stream size                 : 2.17 MiB (82%)
Source stream size          : 2.19 MiB (82%)
Title                       : VideoHandle
Language                    : English
Encoded date                : UTC 2017-10-20 13:28:02
Tagged date                 : UTC 2017-10-20 13:28:02
mdhd_Duration               : 39455

Audio
ID                          : 2
Format                      : AAC
Format/Info                 : Advanced Audio Codec
Format profile              : LC
Codec ID                    : 40
Duration                    : 40 s 0 ms
Bit rate mode               : Constant
Bit rate                    : 96.0 kb/s
Channel(s)                  : 1 channel
Channel positions           : Front: C
Sampling rate               : 16.0 kHz
Frame rate                  : 15.625 FPS (1024 spf)
Compression mode            : Lossy
Stream size                 : 469 KiB (17%)
Title                       : SoundHandle
Language                    : English
Encoded date                : UTC 2017-10-20 13:28:02
Tagged date                 : UTC 2017-10-20 13:28:02

2nd December 2017, 11:01 PM |#329  
Member
Thanks Meter: 4
 
More
Gracias compañero por las instrucciones pero no hay manera
5th December 2017, 01:39 PM |#330  
Senior Member
Thanks Meter: 91
 
More
Quote:
Originally Posted by yellowpage

I spent some time today and updated with the latest rom. for the first try, i followed the clean install steps but i encountered some weird behavior. Then, I did full wipe and installed the Dec build. Same result. The third try, I deleted everything in SD card ezcept for the July rom and gapp. Clean install. This time, everything works fine.

I installed some apps and got the storage full message. Use mount2sd and things are fine again.

Thanks for this wonderful rom and all the people contributed their comments and ideas.

Could you tell me step by step to get Mount2sd working? I have never used it on bravo
6th December 2017, 02:08 AM |#331  
Member
Thanks Meter: 13
 
More
Quote:
Originally Posted by desireleß

Could you tell me step by step to get Mount2sd working? I have never used it on bravo

After you have gapp installed and boot into system, launch play store then install Mount2sd. (Do not install other apps yet.)
Launch M2SD, on the top-right corner, hit the 3 dots... and choose "Application Settings".
Hit the button to enable startup script.

Under the middle tab (Hit "the wrench" icon), you see Applications checkbox is ticked. (I only move app to SD and didn't touch others.)

That is it!
The Following User Says Thank You to yellowpage For This Useful Post: [ View ] Gift yellowpage Ad-Free
Post Reply Subscribe to Thread

Guest Quick Reply (no urls or BBcode)
Message:
Previous Thread Next Thread
Thread Tools Search this Thread
Search this Thread:

Advanced Search
Display Modes